Simply Maya - Spach-Alspaugh House UV - Bake and Environment

Simply Maya - Spach-Alspaugh House UV - Bake and Environment

Simply Maya – Spach-Alspaugh House UV – Bake and Environment
English | Size: 4.00 GB (4,290,863,252 Bytes)
Category: CBTs

In this five and a half hour long tutorial we take a look at creating the UV and the environment for the Spach-Alspaugh House. This tutorial covers a wide range of topics including UV mapping, baking of high resolution geometry into displacement (normal maps can also be generated) and ambient occlusion maps to prepare for texturing, this is done using mental ray and Maya`s inbuilt turtle render engine.
We then create the plants and trees you can see in the render with paint effects before converting them to polygons. We also do a basic camera match and look at various techniques for placing objects with particle systems.

Contents:

Lesson 1: Roof UV layout
Lesson 2a: Baking displacement
Lesson 2b: Ambient maps with MR and turtle
Lesson 3a: Putting baked textures together
Lesson 3b: UV main house
Lesson 4a: Create leafless trees
Lesson 4b: Create leafy trees
Lesson 5a: Create Bushes and ground cover
Lesson 5b: Create grass and prep for export
Lesson 6a: Basic camera matching
Lesson 6b: Setup and placement of trees
Lesson 7a: Placement continues
Lesson 7b: Particle systems
Lesson 7c: Ivy generation for tree trunks

Mediainfo:

General
Complete name : D:DownloadsSimply Maya – Spach-Alspaugh House UV – Bake and Environment1_roof_uv_layout.mp4
Format
: MPEG-4
Format profile : Base Media / Version 2
Codec ID
: mp42
File size
: 206 MiB
Duration
: 26mn 50s
Overall bit rate mode : Variable
Overall bit rate : 1 073 Kbps
Encoded date : UTC 2015-03-04 21:40:57
Tagged date
: UTC 2015-03-04 21:40:57

Video
ID : 1
Format
: AVC
Format/Info
: Advanced Video Codec
Format profile : [emailprotected]<script data-cfhash='f9e31' type="text/javascript">/* */
Format settings, CABAC : Yes
Format settings, ReFrames : 3 frames
Format settings, GOP : M=1, N=75
Codec ID
: avc1
Codec ID/Info : Advanced Video Coding
Duration
: 26mn 50s
Bit rate
: 1 017 Kbps
Width
: 1 920 pixels
Height
: 1 080 pixels
Display aspect ratio : 16:9
Frame rate mode : Constant
Frame rate
: 15.000 fps
Color space
: YUV
Chroma subsampling

: 4:2:0
Bit depth
: 8 bits
Scan type
: Progressive
Bits/(Pixel*Frame)

: 0.033
Stream size
: 195 MiB (95%)
Language
: English
Encoded date : UTC 2015-03-04 21:40:58
Tagged date
: UTC 2015-03-04 21:40:58
Color range
: Limited

Audio
ID : 2
Format
: AAC
Format/Info
: Advanced Audio Codec
Format profile : LC
Codec ID
: 40
Duration
: 26mn 50s
Bit rate mode : Variable
Bit rate
: 53.7 Kbps
Maximum bit rate : 290 Kbps
Channel(s)
: 2 channels
Channel positions: Front: L R
Sampling rate : 44.1 KHz
Compression mode : Lossy
Stream size
: 10.3 MiB (5%)
Language
: English
Encoded date : UTC 2015-03-04 21:40:58
Tagged date
: UTC 2015-03-04 21:40:58

Buy Premium Account To Get Resumable Support & Max Speedrapidgator_net:
http://rapidgator.net/file/6f9dc09cdd3e519e38a5a85370ed3816/avxq3.Simply.Maya..SpachAlspaugh.House.UV..Bake.and.Environment.part01.rar.html
http://rapidgator.net/file/9d31ae59fa084d13503163217a0f3146/avxq3.Simply.Maya..SpachAlspaugh.House.UV..Bake.and.Environment.part02.rar.html
http://rapidgator.net/file/83f4e538b4110c54d9569c8849dd566d/avxq3.Simply.Maya..SpachAlspaugh.House.UV..Bake.and.Environment.part03.rar.html
http://rapidgator.net/file/ea5b1b96a9ed2640a99ab15e2911e8f8/avxq3.Simply.Maya..SpachAlspaugh.House.UV..Bake.and.Environment.part04.rar.html
http://rapidgator.net/file/25123895a823dc97ffbce57fcdbacbee/avxq3.Simply.Maya..SpachAlspaugh.House.UV..Bake.and.Environment.part05.rar.html
http://rapidgator.net/file/bf8d1b981b9bcbd11d53aa2e783cee75/avxq3.Simply.Maya..SpachAlspaugh.House.UV..Bake.and.Environment.part06.rar.html
http://rapidgator.net/file/8c85c4c0dd3672b6d7ab880eeace9c6d/avxq3.Simply.Maya..SpachAlspaugh.House.UV..Bake.and.Environment.part07.rar.html
http://rapidgator.net/file/4b11ad89e83dcb8dba858247aa30be81/avxq3.Simply.Maya..SpachAlspaugh.House.UV..Bake.and.Environment.part08.rar.html
http://rapidgator.net/file/0a8d94a04be3112cb83a6e58a3c05a62/avxq3.Simply.Maya..SpachAlspaugh.House.UV..Bake.and.Environment.part09.rar.html

nitroflare_com:
http://www.nitroflare.com/view/336B1661E98BB42/avxq3.Simply.Maya..SpachAlspaugh.House.UV..Bake.and.Environment.part01.rar
http://www.nitroflare.com/view/55E639DB286F82D/avxq3.Simply.Maya..SpachAlspaugh.House.UV..Bake.and.Environment.part02.rar
http://www.nitroflare.com/view/EF2509BC2E4CD70/avxq3.Simply.Maya..SpachAlspaugh.House.UV..Bake.and.Environment.part03.rar
http://www.nitroflare.com/view/F3ED6F325D50CEB/avxq3.Simply.Maya..SpachAlspaugh.House.UV..Bake.and.Environment.part04.rar
http://www.nitroflare.com/view/9FE7ED15B8528A7/avxq3.Simply.Maya..SpachAlspaugh.House.UV..Bake.and.Environment.part05.rar
http://www.nitroflare.com/view/85EDB5F02F8D9E2/avxq3.Simply.Maya..SpachAlspaugh.House.UV..Bake.and.Environment.part06.rar
http://www.nitroflare.com/view/D4854A4F9064A74/avxq3.Simply.Maya..SpachAlspaugh.House.UV..Bake.and.Environment.part07.rar
http://www.nitroflare.com/view/8D1B80E0C12872D/avxq3.Simply.Maya..SpachAlspaugh.House.UV..Bake.and.Environment.part08.rar
http://www.nitroflare.com/view/90574A9AF9156C2/avxq3.Simply.Maya..SpachAlspaugh.House.UV..Bake.and.Environment.part09.rar

uploadable_ch:
http://www.uploadable.ch/file/6dtKSxHyWxDT/avxq3.Simply.Maya..SpachAlspaugh.House.UV..Bake.and.Environment.part01.rar
http://www.uploadable.ch/file/EcPywSN85ssY/avxq3.Simply.Maya..SpachAlspaugh.House.UV..Bake.and.Environment.part02.rar
http://www.uploadable.ch/file/crctT3Wsh677/avxq3.Simply.Maya..SpachAlspaugh.House.UV..Bake.and.Environment.part03.rar
http://www.uploadable.ch/file/c8ezAMSJZeZt/avxq3.Simply.Maya..SpachAlspaugh.House.UV..Bake.and.Environment.part04.rar
http://www.uploadable.ch/file/BRxwMaYpJkaH/avxq3.Simply.Maya..SpachAlspaugh.House.UV..Bake.and.Environment.part05.rar
http://www.uploadable.ch/file/gKv5gGgx5Abb/avxq3.Simply.Maya..SpachAlspaugh.House.UV..Bake.and.Environment.part06.rar
http://www.uploadable.ch/file/YnUcjpaKKuFu/avxq3.Simply.Maya..SpachAlspaugh.House.UV..Bake.and.Environment.part07.rar
http://www.uploadable.ch/file/S2APfWqEjaRp/avxq3.Simply.Maya..SpachAlspaugh.House.UV..Bake.and.Environment.part08.rar
http://www.uploadable.ch/file/jXjkxTQeCkDv/avxq3.Simply.Maya..SpachAlspaugh.House.UV..Bake.and.Environment.part09.rar

  • 5 views

Download Simply Maya - Spach-Alspaugh House UV - Bake and Environment

Tag: nitroflare.com, uploadable.ch, rapidgator.net



Related links


Comments for Simply Maya - Spach-Alspaugh House UV - Bake and Environment


HQDownloads.net - Best Search Engine For File Sharing Sites
Updated Daily