Lectures on Massage by Famous Experts of TCM: Cervical Spondylosis

Lectures on Massage by Famous Experts of TCM: Cervical Spondylosis

Lectures on Massage by Famous Experts of TCM: Cervical Spondylosis
DVDRip | 720×576 | .AVI/XviD @ 2492 Kbps | 00:50:26 | Audio: Chinese, MP3, 256 kbps, 2 ch | Subs: English, Chinese | 994 MB
Genre: eLearning Video / Medicine, Massage, Rehabilitation

"Chinese with English and Simplified Chinese subtitles. The video introduces the common acupoints for curing cervical spondylosis, basic hand techniques and prevention and care. Emphasis is put on the operations. The introduction in the DVD is professional, clear, and vivid and the massage is practical and easy to operate. This video suits both professional and non-professional audience."

With its agile usage, simple manner, safety and practicality, it is honored Green Treatment.By massage, it can relieve the muscle and vasal spasm on the affected part, improve the blood circulation, enlarge the blood supply on the certain part, accelerate renovating the pathological histiocyte, at the same time, it can eliminate swelling, ease the pressure on the nerve root and other section, so to ease or eliminate the uncomfortable symptoms by this disease. Practice with this video, there is unexpected effect.

also You can look my other last:

General
Complete name : Lectures on Massage by Famous Experts of TCM Cervical Spondylosis.avi
Format
: AVI
Format/Info
: Audio Video Interleave
File size
: 994 MiB
Duration
: 50mn 26s
Overall bit rate : 2 754 Kbps
Writing library : MPlayer

Video
ID : 0
Format
: MPEG-4 Visual
Format profile : Advanced [emailprotected]<script data-cfhash='f9e31' type="text/javascript">/* */
Format settings, BVOP : 2
Format settings, QPel : No
Format settings, GMC : No warppoints
Format settings, Matrix : Default (H.263)
Codec ID
: XVID
Codec ID/Hint : XviD
Duration
: 50mn 26s
Bit rate
: 2 492 Kbps
Width
: 720 pixels
Height
: 576 pixels
Display aspect ratio : 5:4
Frame rate
: 29.970 fps
Standard
: PAL
Color space
: YUV
Chroma subsampling

: 4:2:0
Bit depth
: 8 bits
Scan type
: Progressive
Compression mode : Lossy
Bits/(Pixel*Frame)

: 0.200
Stream size
: 899 MiB (90%)
Writing library : XviD 1.1.2 (UTC 2006-11-01)

Audio
ID : 1
Format
: MPEG Audio
Format version : Version 1
Format profile : Layer 3
Mode
: Joint stereo
Mode extension : MS Stereo
Codec ID
: 55
Codec ID/Hint : MP3
Duration
: 50mn 26s
Bit rate mode : Constant
Bit rate
: 256 Kbps
Channel(s)
: 2 channels
Sampling rate : 44.1 KHz
Compression mode : Lossy
Delay relative to video : 33ms
Stream size
: 92.4 MiB (9%)
Alignment
: Split accross interleaves
Interleave, duration : 500 ms (14.98 video frames)
Interleave, preload duration : 500 ms
Writing library :

Screenshots

Lectures on Massage by Famous Experts of TCM: Cervical Spondylosis

Lectures on Massage by Famous Experts of TCM: Cervical Spondylosis

Lectures on Massage by Famous Experts of TCM: Cervical Spondylosis

Buy Premium Account To Get Resumable Support & Max Speedrapidgator_net:
http://rapidgator.net/file/f4f2a3b476387932d0ecd201c08f3024/sa8su.Lectures.on.Massage.by.Famous.Experts.of.TCM.Cervical.Spondylosis.part1.rar.html
http://rapidgator.net/file/6d59c76abd24b50ee3865efb38728dd1/sa8su.Lectures.on.Massage.by.Famous.Experts.of.TCM.Cervical.Spondylosis.part2.rar.html
http://rapidgator.net/file/fb67d5972f82d8b32c207543e34a10e0/sa8su.Lectures.on.Massage.by.Famous.Experts.of.TCM.Cervical.Spondylosis.part3.rar.html
http://rapidgator.net/file/bdd0b4dedd39b7ca9a3198d3ae8e55b0/sa8su.Lectures.on.Massage.by.Famous.Experts.of.TCM.Cervical.Spondylosis.part4.rar.html
http://rapidgator.net/file/57af290223ca84ae9f97d7d8b92b1e68/sa8su.Lectures.on.Massage.by.Famous.Experts.of.TCM.Cervical.Spondylosis.part5.rar.html

nitroflare_com:
http://www.nitroflare.com/view/F9137343BE744AF/sa8su.Lectures.on.Massage.by.Famous.Experts.of.TCM.Cervical.Spondylosis.part1.rar
http://www.nitroflare.com/view/B9AC03386389F44/sa8su.Lectures.on.Massage.by.Famous.Experts.of.TCM.Cervical.Spondylosis.part2.rar
http://www.nitroflare.com/view/1964E200A756C8E/sa8su.Lectures.on.Massage.by.Famous.Experts.of.TCM.Cervical.Spondylosis.part3.rar
http://www.nitroflare.com/view/81F008D0E2CAF00/sa8su.Lectures.on.Massage.by.Famous.Experts.of.TCM.Cervical.Spondylosis.part4.rar
http://www.nitroflare.com/view/011E09E056D9439/sa8su.Lectures.on.Massage.by.Famous.Experts.of.TCM.Cervical.Spondylosis.part5.rar

uploadable_ch:
http://www.uploadable.ch/file/YqCGRKwGjwn9/sa8su.Lectures.on.Massage.by.Famous.Experts.of.TCM.Cervical.Spondylosis.part1.rar
http://www.uploadable.ch/file/hRHvnJ38qebt/sa8su.Lectures.on.Massage.by.Famous.Experts.of.TCM.Cervical.Spondylosis.part2.rar
http://www.uploadable.ch/file/xx9HSVWJ7mtE/sa8su.Lectures.on.Massage.by.Famous.Experts.of.TCM.Cervical.Spondylosis.part3.rar
http://www.uploadable.ch/file/yFrNd6sAR3Nj/sa8su.Lectures.on.Massage.by.Famous.Experts.of.TCM.Cervical.Spondylosis.part4.rar
http://www.uploadable.ch/file/WF5rRwrTsSwA/sa8su.Lectures.on.Massage.by.Famous.Experts.of.TCM.Cervical.Spondylosis.part5.rar

  • 6 views

Download Lectures on Massage by Famous Experts of TCM: Cervical Spondylosis

Tag: nitroflare.com, uploadable.ch, rapidgator.net



Related links


Comments for Lectures on Massage by Famous Experts of TCM: Cervical Spondylosis


HQDownloads.net - Best Search Engine For File Sharing Sites
Updated Daily